<?xml version="1.0" standalone="no"?>
<!DOCTYPE svg PUBLIC "-//W3C//DTD SVG 1.1//EN" "http://www.w3.org/Graphics/SVG/1.1/DTD/svg11.dtd">
<svg xmlns="http://www.w3.org/2000/svg">
<metadata>Copyright (C) 2017 by original authors @ fontello.com</metadata>
<defs>
<font id="fontello" horiz-adv-x="1000" >
<font-face font-family="fontello" font-weight="400" font-stretch="normal" units-per-em="1000" ascent="850" descent="-150" />
<missing-glyph horiz-adv-x="1000" />
<glyph glyph-name="cursor_type_crosshair" unicode="&#xe802;" d="M511 747c0-764 0-764 0-764m368 382l-736 0m332 360l50 0 0-750-48 0z m400-350l0-50-750 0 0 48z" horiz-adv-x="1000" />

<glyph glyph-name="cursor_type_default" unicode="&#xe803;" d="M305 695l0-620 193 104 122-175 103 50-117 183 171 86z" horiz-adv-x="1000" />

<glyph glyph-name="cursor_type_move" unicode="&#xe807;" d="M501 731l-112-112 88 0 0-245-246 0 0 88-111-112 111-112 0 88 246 0 0-245-88 0 112-112 110 112-88 0 0 245 247 0 0-88 110 112-110 112 0-88-247 0 0 245 88 0-110 112z" horiz-adv-x="1000" />

<glyph glyph-name="cursor_type_zoom" unicode="&#xe808;" d="M571 719c-176 0-320-143-320-320 0-74 26-143 69-197l-225-166a21 21 0 0 1-5-30l15-20a21 21 0 0 1 29-5l234 171c55-45 126-73 203-73 176 0 320 144 320 320 0 177-144 320-320 320z m0-47c151 0 270-122 270-273 0-150-119-273-270-273-151 0-273 123-273 273 0 151 122 273 273 273z m-24-125l0-124-124 0 0-47 124 0 0-124 48 0 0 124 124 0 0 47-124 0 0 124-48 0z" horiz-adv-x="1000" />

<glyph glyph-name="lens_shape_circle" unicode="&#xe809;" d="M500 751c-221 0-401-180-401-401 0-221 180-401 401-401 221 0 401 180 401 401 0 221-180 401-401 401z m0-50c194 0 351-157 351-351 0-194-157-351-351-351-194 0-351 157-351 351 0 194 157 351 351 351z" horiz-adv-x="1000" />

<glyph glyph-name="lens_shape_square" unicode="&#xe80a;" d="M166 666a24 24 0 0 1-20-24l0-583a24 24 0 0 1 24-25l660 0a24 24 0 0 1 24 25l0 583a24 24 0 0 1-24 24l-660 0a24 24 0 0 1-4 0z m29-48l611 0 0-536-611 0 0 536z" horiz-adv-x="1000" />

<glyph glyph-name="question_mark" unicode="&#xe80b;" d="M500 750c-213 0-385-179-385-400 0-221 172-400 385-400 213 0 385 179 385 400 0 221-172 400-385 400z m0-51c185 0 336-156 336-349 0-192-151-349-336-349-185 0-336 157-336 349 0 193 151 349 336 349z m6-85c-21 0-41-3-59-9-18-5-35-13-50-24-12-10-24-22-33-35-16-22-25-46-27-74-1-2-1-4-1-4 0 0 84-10 84-10 1 0 1 0 1 3 8 33 22 54 43 67 16 11 37 15 60 12 11-1 21-3 29-8 10-5 20-13 27-23 6-8 9-18 10-29 1-3 0-10 0-13-1-7-3-13-6-20-3-6-5-10-10-15-8-8-20-19-42-38-14-11-23-20-31-29-19-21-28-36-33-59-4-15-5-30-5-53 1-5 1-11 1-12v-1h83l0 9c0 13 1 22 2 30 2 13 6 20 15 31 7 7 15 15 27 26 18 16 31 28 43 41 19 19 29 33 36 48 6 13 9 25 10 38 0 4 0 13 0 16-2 28-12 53-32 76-3 4-10 12-14 15-19 18-41 30-68 37-16 4-31 6-51 7-3 0-6 0-9 0z m-42-415v-88h84v88h-84z" horiz-adv-x="1000" />

<glyph glyph-name="text_align_bottom_center" unicode="&#xe80c;" d="M91 668c-38 0-69-31-69-69l0-501c0-38 31-69 69-69l818 0c38 0 69 31 69 69l0 501c0 38-31 69-69 69l-818 0z m0-30l818 0c22 0 39-17 39-39l0-501c0-22-17-39-39-39l-818 0c-22 0-39 17-39 39l0 501c0 22 17 39 39 39z m209-378l123 0 0-16-52 0 0-129-19 0 0 129-52 0 0 16m201-86l0-9-82 0c0-12 4-22 11-28 6-7 16-10 28-10 6 0 13 1 20 2 6 2 13 5 19 8l0-17c-7-3-13-5-20-6-7-2-14-2-21-2-17 0-31 5-41 15-10 10-15 24-15 41 0 18 5 32 14 43 10 10 23 16 39 16 15 0 27-5 35-15 9-9 13-22 13-38m-18 5c0 10-3 18-8 24-5 5-13 8-21 8-10 0-19-3-25-8-6-6-9-14-10-24l64 0m135 45l-40-53 42-56-21 0-32 42-32-42-21 0 42 57-38 52 21 0 29-39 29 39 21 0m45 31l0-31 37 0 0-14-37 0 0-59c0-9 1-15 4-18 2-2 7-3 15-3l18 0 0-15-18 0c-14 0-24 2-29 7-5 5-8 15-8 29l0 59-13 0 0 14 13 0 0 31 18 0" horiz-adv-x="1000" />

<glyph glyph-name="text_align_bottom_left" unicode="&#xe80d;" d="M91 669c-38 0-69-31-69-68l0-501c0-38 31-69 69-69l818 0c38 0 69 31 69 69l0 501c0 37-31 68-69 68l-818 0z m0-29l818 0c22 0 39-18 39-39l0-501c0-22-17-39-39-39l-818 0c-22 0-39 17-39 39l0 501c0 21 17 39 39 39z m3-378l123 0 0-17-52 0 0-129-20 0 0 129-51 0 0 17m201-87l0-9-83 0c1-12 5-21 12-28 6-6 16-10 27-10 7 0 14 1 20 3 7 2 13 4 20 8l0-17c-7-3-13-5-20-7-7-1-14-2-21-2-17 0-31 5-41 15-10 11-15 24-15 42 0 17 4 32 14 42 10 11 23 16 39 16 15 0 27-5 35-14 9-10 13-23 13-39m-18 5c0 10-3 18-8 24-6 6-13 9-22 9-10 0-18-3-24-9-6-5-9-13-10-24l64 0m135 45l-40-53 42-56-21 0-32 43-32-43-21 0 42 57-39 52 22 0 29-39 29 39 21 0m45 31l0-31 37 0 0-14-37 0 0-59c0-9 1-15 4-17 2-3 7-4 15-4l18 0 0-15-18 0c-14 0-24 3-29 8-5 5-8 14-8 28l0 59-13 0 0 14 13 0 0 31 18 0" horiz-adv-x="1000" />

<glyph glyph-name="text_align_bottom_right" unicode="&#xe80e;" d="M91 670c-38 0-69-31-69-69l0-501c0-38 31-69 69-69l818 0c38 0 69 31 69 69l0 501c0 38-31 69-69 69l-818 0z m0-30l818 0c22 0 39-17 39-39l0-501c0-22-17-39-39-39l-818 0c-22 0-39 17-39 39l0 501c0 22 17 39 39 39z m407-378l124 0 0-17-52 0 0-129-20 0 0 129-52 0 0 17m202-87l0-8-83 0c1-13 4-22 11-29 7-6 16-9 28-9 7 0 14 0 20 2 6 2 13 4 19 8l0-17c-6-3-13-5-20-6-6-2-13-3-20-3-18 0-31 5-42 16-10 10-15 24-15 41 0 18 5 32 15 42 9 11 22 16 39 16 14 0 26-4 35-14 8-9 13-22 13-39m-18 6c-1 10-3 17-9 23-5 6-12 9-21 9-10 0-18-3-24-8-6-6-10-14-11-24l65 0m134 45l-39-54 41-56-21 0-32 43-31-43-22 0 43 57-39 53 21 0 29-39 29 39 21 0m46 31l0-31 37 0 0-14-37 0 0-60c0-9 1-14 3-17 3-2 8-4 15-4l19 0 0-15-19 0c-14 0-23 3-29 8-5 5-7 15-7 28l0 60-14 0 0 14 14 0 0 31 18 0" horiz-adv-x="1000" />

<glyph glyph-name="text_align_top_center" unicode="&#xe80f;" d="M91 669c-38 0-69-31-69-68l0-501c0-38 31-69 69-69l818 0c38 0 69 31 69 69l0 501c0 37-31 68-69 68l-818 0z m0-29l818 0c22 0 39-18 39-39l0-501c0-22-17-39-39-39l-818 0c-22 0-39 17-39 39l0 501c0 21 17 39 39 39z m209-60l123 0 0-17-52 0 0-129-19 0 0 129-52 0 0 17m201-87l0-9-82 0c0-12 4-21 11-28 6-6 16-10 28-10 6 0 13 1 20 3 6 2 13 4 19 8l0-17c-7-3-13-5-20-7-7-1-14-2-21-2-17 0-31 5-41 15-10 11-15 24-15 42 0 18 5 32 14 42 10 11 23 16 39 16 15 0 27-5 35-14 9-10 13-22 13-39m-18 6c0 9-3 17-8 23-5 6-13 9-21 9-10 0-19-3-25-9-6-5-9-13-10-24l64 0m135 45l-40-53 42-56-21 0-32 43-32-43-21 0 42 57-38 52 21 0 29-39 29 39 21 0m45 32l0-32 37 0 0-14-37 0 0-59c0-9 1-15 4-17 2-3 7-4 15-4l18 0 0-15-18 0c-14 0-24 3-29 8-5 5-8 14-8 28l0 59-13 0 0 14 13 0 0 32 18 0" horiz-adv-x="1000" />

<glyph glyph-name="text_align_top_left" unicode="&#xe810;" d="M91 669c-38 0-69-31-69-68l0-501c0-38 31-69 69-69l818 0c38 0 69 31 69 69l0 501c0 37-31 68-69 68l-818 0z m0-29l818 0c22 0 39-18 39-39l0-501c0-22-17-39-39-39l-818 0c-22 0-39 17-39 39l0 501c0 21 17 39 39 39z m3-56l123 0 0-17-52 0 0-129-20 0 0 129-51 0 0 17m201-87l0-9-83 0c1-12 5-21 12-28 6-6 16-10 27-10 7 0 14 1 20 3 7 2 13 4 20 8l0-17c-7-3-13-5-20-7-7-1-14-2-21-2-17 0-31 5-41 15-10 11-15 24-15 42 0 18 4 32 14 42 10 11 23 16 39 16 15 0 27-5 35-14 9-10 13-23 13-39m-18 5c0 10-3 18-8 24-6 6-13 9-22 9-10 0-18-3-24-9-6-5-9-13-10-24l64 0m135 45l-40-53 42-56-21 0-32 43-32-43-21 0 42 57-39 52 22 0 29-39 29 39 21 0m45 31l0-31 37 0 0-14-37 0 0-59c0-9 1-15 4-17 2-3 7-4 15-4l18 0 0-15-18 0c-14 0-24 3-29 8-5 5-8 14-8 28l0 59-13 0 0 14 13 0 0 31 18 0" horiz-adv-x="1000" />

<glyph glyph-name="text_align_top_right" unicode="&#xe811;" d="M91 669c-38 0-69-31-69-68l0-501c0-38 31-69 69-69l818 0c38 0 69 31 69 69l0 501c0 37-31 68-69 68l-818 0z m0-29l818 0c22 0 39-18 39-39l0-501c0-22-17-39-39-39l-818 0c-22 0-39 17-39 39l0 501c0 21 17 39 39 39z m407-44l124 0 0-17-52 0 0-129-20 0 0 129-52 0 0 17m202-87l0-9-83 0c1-12 4-22 11-28 7-7 16-10 28-10 7 0 14 1 20 3 6 1 13 4 19 7l0-17c-6-2-13-4-20-6-6-1-13-2-20-2-18 0-31 5-42 15-10 10-15 24-15 41 0 18 5 32 15 43 9 11 22 16 39 16 14 0 26-5 35-14 8-10 13-23 13-39m-18 5c-1 10-3 18-9 24-5 6-12 9-21 9-10 0-18-3-24-9-6-6-10-14-11-24l65 0m134 45l-39-53 41-56-21 0-32 43-31-43-22 0 43 57-39 52 21 0 29-39 29 39 21 0m46 31l0-31 37 0 0-14-37 0 0-59c0-9 1-15 3-17 3-3 8-4 15-4l19 0 0-15-19 0c-14 0-23 2-29 8-5 5-7 14-7 28l0 59-14 0 0 14 14 0 0 31 18 0" horiz-adv-x="1000" />

<glyph glyph-name="type_image_inline" unicode="&#xe812;" d="M142 847c-79 0-144-64-144-143l0-714c0-79 65-143 144-143l833 0c79 0 143 64 143 143l0 714c0 79-64 143-143 143l-833 0z m0-57l833 0c49 0 87-38 87-86l0-714c0-48-38-86-87-86l-833 0c-49 0-87 38-87 86l0 714c0 48 38 86 87 86z m232-199l-2-9 6-6 4-1 80 0 8 4 1 9-6 7-3 0-80 0z m160 0l-2-9 6-6 4-1 80 0 8 4 1 9-6 7-3 0-80 0z m160 0l-2-9 6-6 4-1 52 0 0-7 4-8 9-2 6 6 1 4 0 17-4 8-6 2-62 0z m-322-57l0-4 0-80 4-8 8-1 7 5 1 4 0 80-4 8-9 2z m383-43l-1-3 0-80 4-8 9-2 6 6 1 4 0 80-4 8-9 1z m-383-117l0-4 0-80 4-8 8-1 7 5 1 4 0 80-4 8-9 2z m383-43l-1-3 0-58-2 0-8-4-2-9 6-6 4-1 12 0 8 4 2 6 0 68-4 8-9 1z m-331-65l-2-9 6-6 4-1 80 0 8 4 1 9-6 7-3 0-80 0z m160 0l-2-9 6-6 4-1 80 0 8 4 1 9-6 7-3 0-80 0z m-25 224c-37 0-68-26-68-60 0-33 31-60 68-60 37 0 68 27 68 60 0 34-31 60-68 60z m0-12c31 0 55-22 55-48 0-25-24-47-55-47-31 0-55 22-55 47 0 26 24 48 55 48z m63-69l-7-7 56-46-8-7-56 45-6-8 60-47 3-3 3 3 15 13 4 4-4 3-60 50z" horiz-adv-x="1120" />

<glyph glyph-name="type_zoom_window" unicode="&#xe813;" d="M46 804a26 26 0 0 1-23-25l0-854a26 26 0 0 1 25-25l963 0a26 26 0 0 1 25 25l0 854a26 26 0 0 1-25 25l-963 0a26 26 0 0 1-2 0z m28-51l911 0 0-802-911 0 0 802z m296-185l-10 0 0-295 10-8 81 0 0 18-73 0 0 275 328 0 0-79 18 0 0 89-8 8-346 0z m336-285l-237 0 0-18 247 0 8 8 0 188-18 0z m387 500l-7 0 0-78 15 0 0 70 365 0 0 15-373 0z m388-8l373 0 0 15-373 0z m389 0l98 0 0-260 16 0 0 268-8 7-106 0z m-784-458l15 0 0 373-15 0z m882-190l16 0 0 373-16 0z m-882-54l7-8 145 0 0 16-137 0 0 220-15 0z m882 8l-327 0 0-16 335 0 8 8 0 38-16 0z m-715-16l373 0 0 16-373 0z m234 496c-68 0-126-57-126-129 0-73 58-130 126-130 69 0 127 57 127 130 0 72-58 129-127 129z m0-27c58 0 103-47 103-102 0-56-45-103-103-103-57 0-102 47-102 103 0 55 45 102 102 102z m101-144l-15-15 104-101-14-13-104 96-14-14 112-103 7-7 7 7 27 27 8 7-8 7-110 109z m-522 399l4-9 7 3-3 8z m-17-5l3-8 9 2-3 8z m-17-5l2-9 9 2-2 9z m-17-6l2-8 9 3-3 8z m-18-5l3-8 9 2-3 9z m-17-5l3-9 8 3-3 9z m-17-5l2-8 8 2-2 9z m-18-5l3-9 8 3-2 8z m-17-6l3-8 8 3-2 9z m-18-4l3-9 9 2-2 9z m-17-6l3-8 9 2-3 9z m-17-4l2-9 9 2-3 9z m-17-6l2-9 9 3-3 8z m-18-5l3-9 8 3-2 9z m-18-5l4-9 8 3-2 8z m-17-6l3-8 9 3-3 9z m-17-4l2-9 9 3-2 8z m-17-6l2-8 9 2-2 9z m-17-4l2-10 9 3-3 9z m-18-6l3-8 8 2-3 8z m-17-5l2-9 9 3-3 9z m-18-5l3-9 8 3-2 8z m-17-5l3-9 8 2-2 10z m-17-5l2-9 9 3-2 8z m-18-6l3-8 9 2-3 9z m-17-5l2-9 10 3-4 9z m-17-5l2-8 9 2-3 9z m-18-5l3-9 8 2-2 10z m-17-5l3-9 8 3-2 8z m-18-5l3-9 9 2-3 9z m-17-6l2-8 9 3-2 8z m-17-5l2-8 9 2-2 9z m-17-5l2-9 9 3-3 9z m-18-5l3-8 9 2-3 9z m-17-5l3-9 8 3-3 8z m-18-5l3-9 8 3-2 8z m-17-5l3-9 8 2-2 9z m-17-6l2-8 9 3-2 8z m-18-5l3-8 9 2-3 9z m-17-5l3-9 9 3-4 8z m-17-5l2-9 9 3-3 9z m-6-309l6-2 1 7-5 1z m12-3l5-2 2 7-5 1z m11-3l6-2 2 6-7 2z m12-3l6-2 1 5-6 2z m11-4l6-1 1 5-5 2z m12-3l6-1 1 5-5 2z m12-3l5-1 2 5-6 2z m11-3l6-1 2 5-7 2z m11-3l7-2 1 6-6 1z m12-3l6-2 1 6-5 1z m12-3l5-2 2 6-6 1z m12-3l5-3 2 6-6 2z m11-4l6-2 1 6-6 2z m11-3l6-2 2 6-6 2z m12-4l5-1 2 6-5 2z m12-3l5-1 2 6-6 2z m11-3l6-1 1 6-5 1z m11-3l7-2 1 6-6 2z m12-3l6-2 1 6-5 1z m12-3l5-2 2 6-6 1z m11-3l6-2 2 6-6 1z m11-3l7-2 1 5-6 2z m12-4l6-1 2 5-6 2z m12-3l5-1 2 5-6 2z m12-3l5-1 2 5-6 2z m11-3l6-2 1 6-5 1z m11-4l6-1 2 6-6 1z m12-3l6-2 2 7-6 1z m12-3l5-2 2 7-6 1z m11-3l6-2 1 6-5 2z m12-3l6-2 1 6-5 2z m11-3l6-2 2 5-6 3z m12-4l5-1 3 5-7 2z m11-3l6-1 2 5-6 2z m12-3l6-1 1 5-5 2z m11-3l6-2 2 6-6 1z m12-3l6-2 2 6-7 1z m12-3l5-2 2 6-6 1z m11-3l6-2 1 6-5 1z m12-3l5-2 2 5-5 2z m11-4l6-2 2 6-6 2z m12-4l6-1 1 6-6 2z m11-3l6-1 1 6-5 2z m12-3l6-1 1 6-5 1z m12-3l5-1 2 6-6 1z m11-3l6-2 2 6-7 2z m11-3l6-2 2 6-6 1z m12-3l6-2 1 6-5 1z m12-3l5-2 2 6-6 1z m11-4l6-1 2 5-7 2z m12-3l6-1 1 5-6 2z m11-3l6-1 1 5-5 2z m12-3l5-1 2 5-5 2z m12-3l5-2 2 6-6 1z m11-4l6-1 1 6-6 1z m11-3l7-2 1 7-6 1z m12-3l6-2 1 7-5 1z m12-3l5-2 2 6-6 2z m12-3l5-2 2 6-6 2z m10-4l7-1 1 5-6 3z m12-3l6-1 2 5-6 2z m12-3l5-1 2 5-6 2z m12-3l1-1 2 7-2 0z m1 559l2 0-2 9-1 0z m-19 5l2-8 9 1-2 9z m-18-3l2-9 9 2-2 9z m-17-3l1-9 9 2-2 8z m-18-3l1-10 9 3-1 8z m-18-3l1-10 10 2-2 9z m-18-4l2-9 9 2-2 9z m-18-3l2-9 9 2-2 8z m-18-4l2-8 9 1-2 9z m-18-3l2-9 9 2-1 9z m-17-3l2-9 8 1-1 10z m-18-4l2-8 8 1-1 10z m-18-3l2-8 9 1-2 9z m-18-3l2-9 9 2-1 9z m-18-3l2-9 9 2-1 9z m-17-3l2-10 8 2-1 9z m-18-4l2-9 8 2-1 9z m-18-3l2-9 9 2-2 8z m-18-3l2-9 9 2-1 8z m-18-3l3-10 8 3-1 8z m-17-4l2-9 8 2-1 9z m-18-3l2-9 8 1-1 10z m0-305l9-2 1 9-8 1z m18-3l9-2 1 10-8 1z m18-3l9-1 1 8-8 2z m18-3l9-1 1 9-9 1z m18-3l9-1 1 9-9 1z m17-2l10-2 1 9-9 1z m18-3l10-2 1 9-9 2z m18-3l10-1 0 8-8 2z m18-3l10-1 0 9-8 1z m18-3l9-2 1 10-8 1z m18-2l9-2 1 9-8 1z m18-3l9-2 1 9-8 1z m18-4l9 0 1 8-9 2z m17-2l10-1 1 8-9 2z m18-3l10-2 1 10-9 1z m18-2l10-2 1 9-9 1z m18-4l10-1 0 9-8 1z m18-3l9 0 1 8-8 2z m18-2l9-2 1 9-8 2z m18-3l9-2 1 10-8 1z m18-2l9-2 1 9-9 1z" horiz-adv-x="2000" />

<glyph glyph-name="type_zoom_window_left_bottom" unicode="&#xe814;" d="M969 752a24 24 0 0 1-21-23l0-757a24 24 0 0 1 23-24l937 0a24 24 0 0 1 23 24l0 757a24 24 0 0 1-23 23l-937 0a24 24 0 0 1-2 0z m26-47l889 0 0-710-889 0 0 710z m289-225l-9 0 0-260 9-9 94 0 0 17-86 0 0 244 320 0 0-58 17 0 0 66-8 9-337 0z m328-252l-218 0 0-17 227 0 8 9 0 177-17 0z m-1556 356l-7 0 0-90 14 0 0 83 339 0 0 14-346 0z m360-7l347 0 0 14-347 0z m361 0l131 0 0-202 14 0 0 209-8 7-137 0z m-728-444l14 0 0 346-14 0z m859-119l14 0 0 346-14 0z m-859-59l7-7 182 0 0 14-175 0 0 157-14 0z m859 7l-295 0 0-14 301 0 8 7 0 45-14 0z m-655-14l346 0 0 14-346 0z m183 453c-67 0-123-51-123-115 0-65 56-115 123-115 67 0 123 50 123 115 0 64-56 115-123 115z m0-24c56 0 100-42 100-91 0-50-44-91-100-91-56 0-100 41-100 91 0 49 44 91 100 91z m103-130l-13-14 102-89-14-12-103 87-12-15 109-91 6-5 7 6 27 23 8 7-8 7-109 96z m374 331l3-1 0 7-3 0z m8-1l7-1 0 6-6 0z m12-2l6-1 1 6-6 1z m12-1l6-1 1 6-6 1z m12-2l6-1 1 6-6 1z m12-2l6 0 1 5-6 2z m12-1l6-1 1 6-6 1z m12-2l6 0 0 5-5 2z m12-1l6-1 0 6-5 1z m12-2l6 0 1 5-6 1z m12-1l5-1 2 6-7 1z m12-2l6-1 1 7-7 0z m12-1l6-1 0 6-6 0z m11-2l7-1 0 7-6 0z m12-1l7-1 0 6-5 0z m12-2l6-1 1 6-6 1z m12-1l6-1 1 6-6 0z m13-2l5-1 1 6-6 1z m11-2l6 0 1 5-6 2z m12-1l6-1 1 6-6 1z m12-2l6 0 1 5-6 2z m12-1l6-1 1 6-6 1z m12-2l6 0 1 5-6 1z m12-1l6-1 1 6-7 1z m12-2l6-1 1 7-7 0z m12-1l6-1 0 6-5 0z m11-2l7-1 0 7-5 0z m13-1l6-1 0 6-5 0z m12-2l5-1 1 6-6 1z m12-1l5-1 2 6-7 0z m12-2l5-1 1 6-6 1z m11-2l6 0 1 5-6 1z m12-1l7-1 0 6-6 1z m12-2l6 0 1 5-6 2z m12-1l6-1 1 6-6 1z m12-2l6 0 1 5-6 1z m12-1l6-1 1 6-6 1z m12-2l6-1 1 6-6 1z m12-1l6-1 0 6-5 0z m12-2l6-1 0 7-5 0z m12-1l6-1 1 6-6 0z m12-2l5-1 2 6-7 1z m12-1l6-1 1 6-7 0z m12-2l6-1 0 6-6 1z m11-2l7 0 0 5-6 1z m12-1l7-1 0 6-6 1z m12-2l6 0 1 5-6 2z m12-1l6-1 1 6-6 1z m13-2l5 0 1 5-6 1z m11-1l6-1 1 6-6 1z m12-2l6-1 1 6-6 1z m12-1l6-1 1 6-6 0z m12-2l6-1 1 6-6 1z m12-1l6-2 1 7-6 0z m12-2l6-1 1 6-7 1z m12-1l6-1 1 6-7 0z m12-2l6-1 0 6-5 1z m11-2l7 0 0 5-5 1z m12-1l7-1 0 6-5 1z m13-2l5 0 1 5-6 1z m-6-272l2-6 6 3-2 6z m-13-5l3-6 6 3-3 6z m-12-4l2-6 6 2-2 7z m-13-5l2-6 6 2-2 7z m-13-4l2-7 7 2-3 7z m-13-5l3-7 6 3-2 6z m-12-5l2-6 7 2-3 7z m-13-5l2-6 7 3-3 6z m-13-4l3-6 6 2-2 6z m-12-5l2-6 7 2-3 6z m-13-4l2-7 6 2-1 6z m-13-5l3-7 6 3-3 6z m-12-5l2-6 6 2-2 6z m-13-5l2-6 6 2-2 7z m-13-4l3-7 6 2-3 7z m-12-5l2-6 6 2-2 6z m-13-5l2-6 7 2-3 6z m-13-5l2-6 7 3-3 6z m-13-4l3-7 6 3-2 6z m-12-5l2-6 7 2-3 7z m-13-5l2-6 7 2-2 7z m-13-4l3-7 6 3-2 6z m-12-5l2-7 7 3-3 6z m-13-5l2-6 6 3-1 6z m-13-5l3-6 6 3-3 6z m-12-4l2-6 6 2-2 6z m-13-5l2-6 7 2-3 6z m-13-4l3-7 6 2-3 7z m-12-5l2-7 6 3-2 6z m-13-5l2-6 7 2-3 7z m-13-5l2-6 7 2-2 7z m-13-4l3-6 6 1-2 7z m-12-5l2-6 7 2-3 6z m-13-5l2-6 7 2-2 6z m-13-5l3-6 6 3-2 6z m-12-4l2-7 7 3-3 6z m-13-5l2-6 6 2-1 7z m-13-4l3-7 6 2-3 7z m-12-5l2-7 6 3-2 6z m-13-5l2-7 7 3-3 6z m-13-5l3-6 6 3-2 6z m-12-4l2-7 6 3-2 6z m-13-5l3-6 6 2-3 6z m-13-5l2-6 7 2-2 6z m-13-4l3-7 6 3-2 6z m-12-5l2-7 7 3-3 6z m-13-5l2-6 7 2-2 7z m-13-5l3-6 6 2-2 7z m-12-4l2-7 7 2-3 7z m-13-5l2-7 7 3-2 6z m-13-5l3-6 6 2-2 7z m-12-5l2-6 6 3-2 6z m-13-4l3-6 6 2-3 6z m-13-5l3-6 6 2-2 6z m-12-4l2-7 6 2-2 6z m-7-4l2-6 1 1-3 6z m4 620l11-3 3 10-11 3z m21-6l10-3 3 10-10 3z m21-6l10-2 3 10-11 3z m21-6l10-2 3 10-10 3z m20-5l11-3 2 10-10 3z m21-6l10-3 4 11-11 3z m21-5l10-4 3 11-10 3z m21-6l10-3 3 10-11 3z m20-6l11-3 2 11-10 2z m21-6l11-2 2 10-10 3z m21-6l10-2 3 10-10 3z m21-5l10-3 3 10-11 3z m20-6l10-2 4 10-11 3z m21-5l11-4 2 11-10 3z m21-6l10-3 3 10-10 3z m20-6l11-3 3 11-11 2z m22-5l10-3 3 10-11 3z m20-7l10-2 3 10-10 3z m6-264l2-7 7 1-1 7z m-13-2l0-7 7 1 0 7z m-15-1l2-8 6 2 0 7z m-13-2l0-7 7 1-1 7z m-15-2l1-7 7 1 0 7z m-14-2l1-7 8 2-2 7z m-14-1l1-7 7 1 0 7z m-14-2l1-7 7 1-1 7z m-14-2l1-7 7 2-1 7z m-14-1l1-7 7 1-1 7z m-14-2l1-7 7 1-1 7z m-14-2l1-7 7 2-1 7z m-14-1l1-7 7 1-1 7z m-14-2l1-7 7 1-1 7z m-14-2l1-7 7 2-1 7z m-14-1l0-7 8 1-1 7z m-14-2l1-7 7 1-1 7z m-14-2l0-7 8 1-1 8z m-14-1l1-7 6 1 0 7z m-14-2l0-7 8 1-2 7z m-14-2l0-7 7 1 0 8z m-15-1l1-7 8 1-2 7z m-13-2l0-7 7 1 0 7z m-15-2l2-7 6 1-1 8z m-13-1l0-7 7 1-1 7z m-15-2l1-7 7 1-1 7z" horiz-adv-x="2000" />

<glyph glyph-name="type_zoom_window_left_center" unicode="&#xe815;" d="M969 752a24 24 0 0 1-21-23l0-757a24 24 0 0 1 23-24l937 0a24 24 0 0 1 23 24l0 757a24 24 0 0 1-23 23l-937 0a24 24 0 0 1-2 0z m26-47l889 0 0-710-889 0 0 710z m289-225l-9 0 0-260 9-9 94 0 0 17-86 0 0 244 320 0 0-58 17 0 0 66-8 9-337 0z m328-252l-218 0 0-17 227 0 8 9 0 177-17 0z m-1556 445l-7 0 0-90 14 0 0 82 339 0 0 15-346 0z m360-8l347 0 0 15-347 0z m361 0l131 0 0-201 14 0 0 209-8 7-137 0z m-728-443l14 0 0 347-14 0z m859-118l14 0 0 346-14 0z m-859-60l7-7 182 0 0 14-175 0 0 157-14 0z m859 7l-295 0 0-14 301 0 8 7 0 45-14 0z m-655-14l346 0 0 14-346 0z m183 453c-67 0-123-51-123-115 0-65 56-115 123-115 67 0 123 50 123 115 0 64-56 115-123 115z m0-24c56 0 100-42 100-91 0-50-44-91-100-91-56 0-100 41-100 91 0 49 44 91 100 91z m103-130l-13-14 101-89-13-11-103 85-12-14 109-91 6-5 7 5 27 24 8 8-8 6-109 96z m376 333l9-2 2 8-8 2z m17-4l8-3 3 8-9 3z m16-5l9-2 2 9-8 2z m17-4l8-2 2 8-8 2z m16-4l9-3 2 9-8 2z m17-5l8-2 2 9-8 1z m16-4l9-2 2 8-8 2z m17-4l8-2 2 8-8 2z m17-5l8-2 2 8-8 3z m16-4l9-2 1 8-8 3z m17-5l8-1 2 8-8 2z m17-3l8-3 2 8-9 3z m16-5l8-2 2 8-8 2z m17-4l8-3 2 9-8 2z m16-4l8-3 3 9-9 2z m17-5l8-2 2 8-8 2z m16-4l8-2 3 8-8 2z m17-5l8-1 2 8-8 2z m16-4l8-2 3 8-8 2z m17-4l8-2 2 8-8 2z m16-5l8-2 3 9-8 2z m17-4l8-2 2 8-8 3z m16-4l9-2 2 8-9 2z m17-4l8-3 2 8-8 3z m17-5l8-2 2 8-9 3z m16-4l9-2 1 8-8 2z m17-4l8-3 2 9-8 2z m16-5l9-2 2 9-9 1z m17-4l8-2 2 8-8 2z m16-4l9-2 2 8-8 2z m17-5l8-2 3 8-9 2z m16-4l9-2 2 8-8 3z m17-5l8-1 3 8-9 2z m16-3l9-3 2 8-8 3z m17-5l8-2 3 8-9 2z m16-4l9-3 2 9-8 2z m17-4l8-3 3 9-9 2z m17-5l8-2 2 8-8 2z m16-4l9-3 2 9-9 2z m17-5l8-1 2 8-8 2z m17-4l8-2 2 8-9 2z m16-4l9-2 1 8-8 2z m17-5l8-2 2 9-8 2z m-2-271l2-6 5 2-2 5z m-10-2l1-6 6 1-2 6z m-11-3l1-6 6 2-1 5z m-10-2l1-6 5 1-1 6z m-11-4l1-5 6 2-1 5z m-11-2l2-5 5 1-1 5z m-10-3l1-5 6 2-2 5z m-11-2l1-5 6 1-1 5z m-11-3l2-5 5 2-1 5z m-10-2l1-5 6 1-2 5z m-11-3l1-5 6 1-1 6z m-10-2l1-6 5 2-1 5z m-11-3l1-5 6 1-1 6z m-11-2l2-6 5 2-1 5z m-10-3l1-5 6 1-2 6z m-11-3l1-5 6 2-1 5z m-11-2l2-5 5 1-1 5z m-10-3l1-5 6 2-2 5z m-11-2l2-5 5 1-1 5z m-10-3l1-5 5 2-1 5z m-10-2l1-5 5 1-1 5z m-11-3l1-5 5 2-1 5z m-11-2l2-6 5 1-2 6z m-10-3l1-5 5 1-1 6z m-11-2l1-6 5 1-1 6z m-11-3l2-5 5 1-2 6z m-10-2l1-6 5 1-1 6z m-11-3l1-5 5 1-1 5z m-10-3l1-5 5 1-1 5z m-11-2l1-5 5 1-1 5z m-11-3l2-5 5 1-2 5z m-10-2l1-5 5 1-1 5z m-11-3l1-5 5 1-1 5z m-11-2l2-6 5 1-2 6z m-10-3l1-5 5 1-1 5z m-11-2l1-6 5 1-1 6z m-10-3l1-5 5 1-1 5z m-11-2l1-6 6 1-2 6z m-11-3l2-5 5 1-1 5z m-10-3l1-5 6 1-2 5z m-11-2l1-5 6 1-1 5z m-11-3l2-5 5 1-1 5z m-10-2l1-5 6 1-2 5z m-11-3l1-5 6 1-1 5z m-10-2l1-6 5 1-1 6z m-11-3l1-6 6 2-1 5z m-11-2l2-6 5 1-1 6z m-10-3l1-6 6 2-2 5z m-11-2l1-6 6 1-1 6z m-11-4l2-5 5 2-1 5z m-10-2l1-5 6 1-2 5z m-11-3l1-5 6 2-1 5z m-10-2l1-5 5 1-1 5z m-11-3l1-5 6 2-1 5z m-11-2l2-5 5 1-1 5z m-10-3l2-5 5 1-2 6z m-10-2l1-6 5 2-1 5z m-11-3l1-5 5 1-1 6z m-11-2l2-6 5 2-2 5z m-10-3l1-5 5 1-1 6z m-11-3l1-5 5 2-1 5z m-10-2l1-5 5 1-1 5z m-11-3l1-5 5 2-1 5z m-11-2l2-5 5 1-2 5z m-10-3l1-5 5 2-1 5z m-11-2l1-5 5 1-1 5z m1 522l10-3 2 10-10 3z m20-5l10-3 2 10-10 3z m20-5l10-3 3 10-10 3z m20-6l10-2 3 10-10 2z m20-5l10-2 3 10-10 2z m20-5l11-3 2 11-10 2z m21-6l10-2 2 10-10 2z m20-5l10-2 2 10-10 2z m20-5l11-3 2 10-10 3z m21-5l10-3 2 10-10 3z m20-5l10-3 2 10-10 3z m20-6l10-2 3 10-10 2z m20-5l10-2 3 10-10 2z m20-5l10-3 3 11-10 2z m21-5l10-3 2 10-10 3z m20-5l10-3 2 10-10 3z m20-6l10-3 3 10-11 4z m20-5l10-3 3 10-10 3z m20-5l2-1 2 10-1 1z m-8-262l2-10 10 3-2 9z m-20-5l3-10 10 3-3 10z m-19-5l2-9 10 2-3 10z m-20-4l2-10 10 2-2 10z m-19-5l2-10 9 2-1 10z m-20-5l2-10 10 2-2 10z m-20-5l3-10 9 3-2 10z m-20-5l3-10 10 3-3 10z m-19-5l2-9 10 2-2 10z m-20-4l2-10 10 2-2 10z m-20-5l3-10 10 2-3 10z m-19-4l2-10 10 2-3 9z m-20-5l3-10 10 2-3 10z m-19-5l2-10 10 2-3 10z m-20-5l2-10 10 3-2 9z m-20-5l3-10 9 3-2 10z m-20-5l3-9 10 2-3 10z m-19-4l2-10 10 2-2 10z m-20-5l2-10 10 2-2 10z" horiz-adv-x="2000" />

<glyph glyph-name="type_zoom_window_left_top" unicode="&#xe816;" d="M969 752a24 24 0 0 1-21-23l0-757a24 24 0 0 1 23-24l937 0a24 24 0 0 1 23 24l0 757a24 24 0 0 1-23 23l-937 0a24 24 0 0 1-2 0z m26-47l889 0 0-710-889 0 0 710z m289-225l-9 0 0-260 9-9 94 0 0 17-86 0 0 244 320 0 0-58 17 0 0 66-8 9-337 0z m328-252l-218 0 0-17 227 0 8 9 0 177-17 0z m-1556 517l-7 0 0-90 14 0 0 83 339 0 0 14-346 0z m360-7l347 0 0 14-347 0z m361 0l131 0 0-201 14 0 0 208-8 7-137 0z m-728-443l14 0 0 346-14 0z m859-119l14 0 0 346-14 0z m-859-59l7-8 182 0 0 15-175 0 0 156-14 0z m859 7l-295 0 0-15 301 0 8 8 0 45-14 0z m-655-15l346 0 0 15-346 0z m183 453c-67 0-123-50-123-115 0-64 56-115 123-115 67 0 123 51 123 115 0 65-56 115-123 115z m0-24c56 0 100-41 100-91 0-49-44-91-100-91-56 0-100 42-100 91 0 50 44 91 100 91z m103-129l-13-14 101-90-13-11-103 86-12-15 109-90 6-6 7 6 27 24 8 6-8 8-109 96z m381 335l9-4 4 10-9 4z m19-7l10-4 3 10-9 3z m19-7l10-4 3 9-9 4z m20-8l9-3 4 10-10 3z m18-7l10-3 3 9-9 4z m20-7l9-3 4 9-10 4z m19-7l9-4 4 10-10 3z m19-7l9-4 4 10-9 4z m19-7l10-3 3 9-10 4z m19-7l10-4 3 10-9 3z m19-7l10-4 3 10-9 3z m20-8l9-3 3 10-9 3z m18-6l10-4 4 10-10 3z m20-7l9-4 4 9-10 4z m19-8l10-3 3 9-10 4z m19-7l9-3 4 10-9 3z m19-7l10-3 3 9-10 4z m19-7l9-3 4 9-9 4z m19-7l10-4 4 10-10 3z m19-7l10-4 3 10-9 4z m20-7l9-4 4 10-10 3z m19-7l9-4 4 9-10 4z m19-8l9-3 4 10-10 3z m19-7l9-3 4 10-10 3z m19-6l10-4 3 9-9 4z m19-8l10-3 3 9-9 4z m20-7l9-4 4 10-10 4z m18-7l10-3 3 9-9 4z m20-7l9-3 4 9-10 4z m18-7l10-4 4 10-10 3z m20-7l9-4 4 10-9 3z m19-7l10-4 3 10-10 4z m19-7l10-4 3 10-9 3z m19-7l10-4 3 9-10 4z m19-8l10-3 3 10-9 3z m19-7l10-3 4 9-10 4z m20-7l9-3 4 9-10 4z m2-272l1-4 4 0-1 5z m-8-1l1-4 4 1-1 3z m-7-5l3 0 0 4-4 0z m-8 3l0-4 4 0-1 5z m-9-1l1-4 4 1-1 3z m-8-1l1-4 4 0 0 5z m-8-1l1-4 4 1 0 3z m-7-1l0-4 4 0-1 4z m-8-1l0-4 4 0-1 5z m-9-1l1-4 4 1 0 3z m-7-2l0-3 4 0 0 4z m-8 0l0-5 4 1 0 4z m-8-1l0-4 4 0 0 4z m-8-5l5 0-1 4-4 0z m-8 3l1-5 3 1 0 4z m-8-2l1-3 3 0 0 4z m-8-5l5 1-1 4-4 0z m-8 4l0-4 5 0-1 4z m-8-2l1-3 4 0-1 4z m-7-5l3 1 0 4-4 0z m-8 3l0-3 4 0-1 4z m-9-1l1-4 4 1-1 4z m-7-5l4 1-1 4-4 0z m-9 3l1-3 4 0 0 4z m-7-1l0-4 4 1-1 4z m-8-1l0-4 4 1-1 4z m-9-1l1-4 4 1 0 4z m-7-1l0-4 4 1 0 4z m-8-1l0-4 4 1 0 4z m-8-1l0-4 4 1-1 4z m-8-1l0-4 5 1-1 3z m-8-1l1-4 3 0 0 5z m-8-1l1-4 3 1 0 4z m-8-1l0-4 4 1 0 3z m-8-1l0-4 5 0-1 5z m-8-1l1-4 4 1-1 3z m-7-5l3 0 0 4-4 0z m-9 3l1-4 4 0-1 5z m-8-1l1-4 4 1-1 3z m-7-5l4 0-1 4-4 0z m-9 3l1-4 4 0 0 4z m-7-1l0-4 4 1-1 3z m-8-5l4 0-1 4-3 0z m-9 3l1-4 4 0 0 4z m-8-2l1-3 4 0 0 4z m-7 0l0-4 4 0 0 4z m-8-1l0-4 4 1-1 3z m-8-2l0-3 5 0-1 4z m-8 0l0-5 4 1 0 4z m-8-1l1-4 3 0 0 4z m-8-2l0-3 4 0 0 4z m-8 0l0-5 5 1-1 4z m-8-2l1-3 4 0-1 4z m-8-1l1-4 3 1 0 4z m-8 0l1-5 4 1-1 4z m-8-2l0-3 5 0-1 4z m-7-5l4 1-1 4-4 0z m-9 3l1-3 4 0 0 4z m-7-1l0-4 4 1-1 4z m-8-5l4 1-1 4-3 0z m-9 3l1-3 4 0-1 4z m-8-1l1-4 4 1 0 4z m-7-5l4 1 0 3-4 0z m-8 3l0-4 4 0-1 5z m-8-1l0-4 4 1 0 4z m-8-1l0-4 4 1 0 4z m-8-1l1-4 3 1 0 4z m-8-1l0-4 4 1 0 3z m-8-1l0-4 5 0-1 5z m-8-1l1-4 4 1-1 4z m-8-1l1-4 3 1 0 3z m-8-1l1-4 3 0 0 5z m-8-1l0-4 5 1-1 3z m-8-1l1-4 4 0-1 4z m-8-1l1-4 4 0 0 5z m-8-1l1-4 4 1-1 3z m-7-5l4 0-1 4-3 0z m-9 3l1-4 4 0-1 4z m-8-1l1-4 4 0 0 4z m-7-5l4 0 0 4-4 0z m-8 3l0-4 4 0-1 4z m-8-1l0-4 4 0 0 4z m-8-5l4 0 0 4-5 0z m-8 3l1-4 3 0 0 4z m-8-2l0-3 4 0 0 4z m-8 0l0-5 5 1-1 4z m-8-1l0-4 5 0-1 4z m-8-2l1-3 3 0 0 4z m-1 508l12-6 6 12-13 5z m25-11l12-6 5 13-12 5z m25-11l12-5 5 12-12 5z m24-10l13-6 5 13-12 5z m25-11l12-6 6 13-13 5z m25-11l12-5 6 12-13 5z m25-10l12-6 5 13-12 5z m24-11l12-5 6 12-12 5z m25-10l12-6 5 12-12 5z m25-11l12-6 5 13-12 5z m24-11l13-5 5 12-12 5z m25-10l12-6 6 13-13 5z m25-11l12-6 5 13-12 5z m25-11l12-5 5 12-12 5z m24-10l13-6 5 13-12 5z m14-269l2-7 7 1-1 7z m-13-2l0-7 7 1 0 7z m-15-1l2-8 6 2 0 7z m-13-2l0-7 7 1-1 7z m-15-2l1-7 7 1 0 7z m-14-2l1-7 8 2-2 7z m-14-1l1-7 7 1 0 7z m-14-2l1-7 7 1-1 7z m-14-2l1-7 7 2-1 7z m-14-1l1-7 7 1-1 7z m-14-2l1-7 7 1-1 7z m-14-2l1-7 7 2-1 7z m-14-1l1-7 7 1-1 7z m-14-2l1-7 7 1-1 7z m-14-2l1-7 7 2-1 7z m-14-1l0-7 8 1-1 7z m-14-2l1-7 7 1-1 7z m-14-2l0-7 8 1-1 8z m-14-1l1-7 6 1 0 7z m-14-2l0-7 8 1-2 7z m-14-2l0-7 7 1 0 8z m-15-1l1-7 8 1-2 7z m-13-2l0-7 7 1 0 7z m-15-2l2-7 6 1-1 8z m-13-1l0-7 7 1-1 7z m-15-2l1-7 7 1-1 7z" horiz-adv-x="2000" />

<glyph glyph-name="type_zoom_window_right_bottom" unicode="&#xe817;" d="M1011 752a24 24 0 0 0 22-23l0-757a24 24 0 0 0-24-24l-936 0a24 24 0 0 0-24 24l0 757a24 24 0 0 0 24 23l936 0a24 24 0 0 0 2 0z m-26-47l-889 0 0-710 889 0 0 710z m-289-225l9 0 0-260-9-9-93 0 0 17 85 0 0 244-320 0 0-58-17 0 0 66 8 9 337 0z m-328-252l218 0 0-17-227 0-8 9 0 177 17 0z m1556 356l7 0 0-90-14 0 0 83-339 0 0 14 346 0z m-360-7l-346 0 0 14 346 0z m-361 0l-130 0 0-202-15 0 0 209 8 7 137 0z m728-444l-14 0 0 346 14 0z m-858-119l-15 0 0 346 15 0z m858-59l-7-7-182 0 0 14 175 0 0 157 14 0z m-858 7l294 0 0-14-301 0-8 7 0 45 15 0z m655-14l-347 0 0 14 347 0z m-275 453c-67 0-123-51-123-115 0-65 56-115 123-115 67 0 123 50 123 115 0 64-56 115-123 115z m0-24c56 0 100-42 100-91 0-50-44-91-100-91-56 0-100 41-100 91 0 49 44 91 100 91z m103-130l-13-14 101-89-13-12-103 87-12-15 109-91 6-5 7 6 26 23 9 7-9 7-108 96z m-491 330l3 1-1 6-3 0z m-13 5l1-6 6 1-1 5z m-12-2l1-6 6 1-1 6z m-12-1l1-6 6 1-1 6z m-12-2l1-6 6 1 0 6z m-12-2l1-5 6 0-1 7z m-11-1l0-6 6 1-1 6z m-12-2l0-5 6 0-1 7z m-12-1l0-6 6 1-1 6z m-13-2l2-5 5 0 0 6z m-12-1l2-6 5 1 0 6z m-11-1l1-7 5 1 0 6z m-12-2l0-6 7 1-1 5z m-12-1l0-7 7 1-1 6z m-12-2l1-6 6 1-1 5z m-12-2l1-6 6 1-1 6z m-12-1l1-6 6 1-1 5z m-12-2l1-6 6 1-1 6z m-12-2l1-5 6 0-1 7z m-11-1l0-6 6 1-1 6z m-13-2l1-5 6 0-1 7z m-12-1l1-6 6 1-1 6z m-12-2l1-5 6 0 0 6z m-12-1l1-6 6 1 0 6z m-11-1l0-7 6 1 0 6z m-12-2l0-6 7 1-2 5z m-12-1l0-7 7 1-2 6z m-12-2l1-6 6 1-1 5z m-12-2l1-6 5 1 0 6z m-12-1l1-6 5 1 0 5z m-12-2l1-6 6 1-1 6z m-12-2l1-5 6 0-1 6z m-12-1l1-6 6 1-1 6z m-12-2l1-5 6 0-1 7z m-12-1l1-6 6 1-1 6z m-12-2l1-5 6 0 0 6z m-12-1l1-6 6 1-1 6z m-11-2l0-6 6 1-1 6z m-12-1l0-6 6 1-1 5z m-12-1l0-7 6 1-1 6z m-12-2l1-6 5 1 0 5z m-13-2l2-6 5 1 0 6z m-11-1l1-6 5 1 0 5z m-12-2l0-6 7 1-1 6z m-12-2l0-5 7 0-1 6z m-12-1l1-6 6 1-1 6z m-12-2l1-5 6 0-1 7z m-12-1l1-6 6 1-1 6z m-12-2l1-5 6 0-1 6z m-12-1l1-6 6 1-1 6z m-11-2l0-6 6 1-1 6z m-13-1l1-6 6 1-1 5z m-12-2l1-6 6 1-1 6z m-12-1l2-7 5 2 0 5z m-12-2l1-6 6 1 0 6z m-11-1l0-6 6 1 0 5z m-12-2l0-6 7 1-1 6z m-12-2l0-5 7 0-2 6z m-12-1l1-6 6 1-1 6z m-12-2l1-5 5 0 0 6z m4-280l6-3 3 6-7 3z m12-5l7-3 2 6-6 3z m13-5l6-2 3 6-7 3z m13-5l6-2 3 6-7 3z m12-5l7-2 2 7-6 2z m13-4l6-3 3 7-7 2z m13-5l6-2 2 6-6 3z m13-4l6-3 2 6-6 3z m12-5l6-2 3 6-6 2z m13-5l6-2 2 6-6 2z m13-5l6-2 2 7-6 1z m12-4l6-3 3 7-6 2z m13-5l6-2 2 6-6 2z m13-5l6-2 3 6-7 3z m12-5l7-2 2 7-6 2z m13-4l6-2 3 6-7 2z m13-5l6-2 2 6-6 2z m12-4l7-3 2 6-6 3z m13-5l6-3 3 7-7 2z m12-5l7-2 2 6-6 3z m14-5l6-2 2 6-6 3z m12-4l6-3 3 7-6 2z m13-5l6-3 2 7-6 2z m13-4l6-3 2 6-6 3z m12-5l6-3 3 6-6 3z m13-5l6-2 2 6-6 2z m13-5l6-2 2 6-6 2z m12-5l7-2 2 7-6 2z m13-4l6-3 3 7-7 2z m12-5l7-2 2 6-6 3z m13-5l7-2 2 6-6 3z m13-5l6-1 3 6-7 2z m12-4l7-2 2 6-6 2z m14-5l6-2 2 6-7 2z m12-4l6-3 3 6-6 3z m13-5l6-3 2 7-6 2z m13-5l6-2 2 6-6 3z m12-5l6-2 3 7-6 2z m13-4l6-3 2 7-6 2z m12-5l7-3 2 7-6 2z m13-4l7-3 2 6-6 3z m13-5l6-3 3 7-7 2z m12-5l7-2 2 6-6 2z m13-5l7-2 2 6-7 2z m13-4l6-3 3 7-7 2z m12-5l7-3 2 7-6 2z m14-5l6-2 2 6-7 3z m12-5l6-2 3 6-6 3z m13-5l6-2 2 7-6 2z m13-4l6-3 2 7-6 2z m12-5l6-2 3 6-6 3z m13-4l6-3 2 6-6 3z m12-5l7-2 2 6-6 2z m13-5l7-2 2 6-7 2z m13-5l6-2 3 7-7 1z m12-4l2-1 2 6-1 1z m-15 632l3-10 11 3-3 10z m-20-6l3-10 10 3-3 10z m-21-5l3-10 10 2-2 11z m-21-6l3-10 11 2-4 11z m-20-6l2-10 11 3-3 10z m-21-5l3-11 10 3-3 11z m-21-6l3-11 10 4-2 10z m-21-6l3-10 10 3-2 10z m-20-5l2-11 11 3-3 10z m-21-6l3-10 10 2-3 11z m-21-6l3-10 11 2-4 11z m-21-6l3-10 10 3-2 10z m-20-5l3-10 10 2-3 11z m-21-6l2-11 11 4-3 10z m-21-6l3-10 10 3-3 10z m-21-5l3-11 11 3-3 10z m-21-6l4-10 10 3-3 10z m-20-6l3-10 10 2-3 11z m-1-278l6-1 2 7-8 1z m14-2l7-1 0 7-6 1z m14-1l7-2 1 8-8 1z m14-2l7-1 1 7-7 1z m14-2l7-1 1 7-8 1z m14-1l7-2 1 7-7 2z m14-2l7-1 1 7-7 1z m14-2l7-1 1 7-7 1z m14-1l7-2 1 7-7 2z m14-2l7-1 1 7-7 1z m14-2l7-1 1 7-7 1z m14-1l7-2 1 7-7 2z m14-2l7-1 1 7-7 1z m14-2l8-1 0 7-7 1z m14-1l7-2 2 7-8 2z m14-2l8-1 0 7-7 1z m15-2l6-1 1 7-7 1z m13-2l8-1 0 7-6 2z m15-1l7-1 0 7-7 1z m13-2l8-1 1 7-7 1z m15-2l7-1 0 7-7 2z m14-1l7-1 1 7-7 1z m14-2l7-1 0 7-6 1z m14-2l7-1 1 7-7 2z m14-1l7-1 1 7-7 1z m14-2l7-1 1 7-7 1z" horiz-adv-x="2000" />

<glyph glyph-name="type_zoom_window_right_center" unicode="&#xe818;" d="M1011 752a24 24 0 0 0 22-23l0-757a24 24 0 0 0-24-24l-936 0a24 24 0 0 0-24 24l0 757a24 24 0 0 0 24 23l936 0a24 24 0 0 0 2 0z m-26-47l-889 0 0-710 889 0 0 710z m-289-225l9 0 0-260-9-9-93 0 0 17 85 0 0 244-320 0 0-58-17 0 0 66 8 9 337 0z m-328-252l218 0 0-17-227 0-8 9 0 177 17 0z m1556 445l7 0 0-90-14 0 0 82-339 0 0 15 346 0z m-360-8l-346 0 0 15 346 0z m-361 0l-130 0 0-201-15 0 0 209 8 7 137 0z m728-443l-14 0 0 347 14 0z m-858-118l-15 0 0 346 15 0z m858-60l-7-7-182 0 0 14 175 0 0 157 14 0z m-858 7l294 0 0-14-301 0-8 7 0 45 15 0z m655-14l-347 0 0 14 347 0z m-275 453c-67 0-123-51-123-115 0-65 56-115 123-115 67 0 123 50 123 115 0 64-56 115-123 115z m0-24c56 0 100-42 100-91 0-50-44-91-100-91-56 0-100 41-100 91 0 49 44 91 100 91z m103-130l-13-14 101-89-13-11-103 85-12-14 109-91 6-5 7 5 26 24 9 8-9 6-108 96z m-502 339l3-8 8 2-2 8z m-16-5l2-8 8 3-2 8z m-17-3l3-9 8 2-3 9z m-16-5l2-8 8 2-2 8z m-17-4l3-9 8 3-3 8z m-16-4l2-9 8 2-2 8z m-17-5l3-8 8 2-3 8z m-16-4l2-8 8 2-2 8z m-17-5l2-8 9 2-3 9z m-16-4l2-8 8 2-2 9z m-17-4l2-8 8 1-2 9z m-16-5l1-8 9 3-2 8z m-17-4l2-8 8 2-2 8z m-17-4l2-9 8 3-1 8z m-16-4l2-9 8 3-2 8z m-17-5l2-8 8 2-2 8z m-17-4l3-8 8 2-2 8z m-16-4l2-8 8 1-2 9z m-17-5l3-8 8 2-2 8z m-16-4l2-8 8 2-2 8z m-17-4l3-9 8 2-2 9z m-16-5l2-8 9 2-3 9z m-17-4l3-8 8 2-2 8z m-16-5l2-8 8 3-2 8z m-17-4l2-8 9 2-2 9z m-16-4l2-8 8 2-2 8z m-17-4l2-9 8 3-1 8z m-16-4l1-9 9 2-2 8z m-17-5l2-8 8 2-2 8z m-17-4l2-8 9 2-2 8z m-16-5l2-8 8 2-2 8z m-17-4l2-8 9 2-3 9z m-17-4l3-8 8 1-2 9z m-16-5l2-8 9 3-3 8z m-17-4l3-8 8 2-2 8z m-16-4l2-9 9 3-3 8z m-16-4l2-9 8 3-2 8z m-17-5l2-8 9 2-3 8z m-16-4l2-9 8 3-2 8z m-17-4l2-8 8 1-2 9z m-16-5l1-8 9 2-2 8z m-17-4l2-8 8 2-2 8z m-17-4l2-9 8 2-1 9z m5-282l5-2 2 6-5 1z m11-3l5-1 1 6-5 1z m11-2l5-2 1 6-5 1z m10-3l5-1 2 6-5 1z m10-2l6-2 1 5-5 2z m11-3l6-1 1 5-6 1z m11-2l5-2 1 5-5 2z m10-3l6-1 1 5-6 1z m11-2l5-2 2 5-6 2z m10-3l6-1 1 5-5 1z m11-3l6-1 1 5-6 2z m11-2l5-2 2 6-6 1z m10-3l6-1 1 5-5 2z m11-2l6-2 1 6-6 1z m11-3l5-1 1 5-5 2z m10-2l6-2 1 5-6 2z m11-3l5-1 2 5-6 1z m10-2l6-2 1 5-5 2z m11-3l6-1 1 5-6 1z m11-2l5-2 2 5-6 2z m10-3l5-1 2 5-5 1z m11-2l5-2 2 5-6 2z m11-4l5-1 1 6-5 1z m10-2l5-1 1 5-5 2z m11-3l5-1 1 6-5 1z m10-2l5-1 2 5-5 2z m11-3l5-1 1 6-5 1z m11-2l5-1 1 5-5 1z m10-3l5-1 2 5-5 1z m11-2l5-1 1 5-5 1z m11-3l5-1 1 5-5 1z m10-2l5-1 1 5-5 1z m11-3l5-1 1 5-5 1z m10-3l5-1 2 6-5 1z m11-2l5-1 1 5-5 1z m11-3l5-1 1 6-5 1z m10-2l5-1 2 5-5 1z m11-3l5-1 1 6-5 1z m11-2l5-1 1 5-5 1z m10-3l5-1 1 5-5 1z m10-2l6-1 1 5-6 1z m11-3l5-1 2 5-6 1z m10-2l6-1 1 5-5 1z m11-3l6-1 1 5-6 1z m11-3l5-1 2 6-6 1z m10-2l6-2 1 6-5 1z m11-3l6-1 1 6-6 1z m11-2l5-2 1 6-5 1z m10-3l6-1 1 6-6 1z m11-2l5-2 2 5-6 2z m10-3l6-1 1 5-5 1z m11-2l6-2 1 5-6 2z m11-3l5-1 2 5-6 1z m10-2l6-2 1 5-5 2z m11-3l6-1 1 5-6 1z m11-3l5-1 1 5-5 2z m10-2l5-2 2 6-6 1z m11-3l5-1 2 5-6 2z m10-2l5-2 2 6-5 1z m11-3l5-1 1 5-5 2z m11-2l5-2 1 5-5 2z m10-3l5-1 2 5-5 1z m11-2l5-2 1 5-5 2z m11-3l5-1 1 5-5 1z m10-2l5-2 1 5-5 2z m11-3l5-1 1 5-5 1z m-7 533l2-10 10 3-2 10z m-20-5l2-10 10 3-2 10z m-21-5l3-10 10 3-2 10z m-20-5l3-10 10 2-3 10z m-20-5l3-10 10 2-3 10z m-20-5l3-11 10 3-3 10z m-20-6l2-10 10 2-2 10z m-20-5l2-10 10 2-2 10z m-21-6l3-10 10 3-3 10z m-20-5l3-10 10 3-3 10z m-20-5l3-10 10 3-3 10z m-21-5l3-10 11 2-4 10z m-20-5l3-10 10 2-3 10z m-20-5l3-11 10 3-3 10z m-20-6l2-10 11 3-3 10z m-20-5l2-10 10 3-2 10z m-21-6l3-10 10 3-2 11z m-20-5l3-10 10 3-3 10z m-11-3l2-10 2 1-3 10z m0-278l10-3 2 10-10 2z m19-5l10-3 3 10-10 3z m20-5l10-2 2 9-9 3z m20-5l10-2 2 10-10 2z m20-5l9-2 3 10-10 2z m19-5l10-2 3 10-10 2z m20-4l9-3 3 10-10 3z m19-5l10-3 3 10-10 3z m20-5l10-2 2 9-10 3z m20-5l10-2 2 10-10 2z m19-5l10-2 3 10-10 2z m20-4l10-2 2 10-9 1z m20-5l10-2 2 10-10 2z m20-5l10-2 1 10-9 2z m19-4l10-3 2 10-10 2z m20-5l9-3 3 10-10 3z m19-5l10-2 3 9-10 3z m20-5l10-2 2 10-9 2z m20-5l10-2 2 10-10 2z" horiz-adv-x="2000" />

<glyph glyph-name="type_zoom_window_right_top" unicode="&#xe819;" d="M1011 752a24 24 0 0 0 22-23l0-757a24 24 0 0 0-24-24l-936 0a24 24 0 0 0-24 24l0 757a24 24 0 0 0 24 23l936 0a24 24 0 0 0 2 0z m-26-47l-889 0 0-710 889 0 0 710z m-289-225l9 0 0-260-9-9-93 0 0 17 85 0 0 244-320 0 0-58-17 0 0 66 8 9 337 0z m-328-252l218 0 0-17-227 0-8 9 0 177 17 0z m1556 517l7 0 0-90-14 0 0 83-339 0 0 14 346 0z m-360-7l-346 0 0 14 346 0z m-361 0l-130 0 0-201-15 0 0 208 8 7 137 0z m728-443l-14 0 0 346 14 0z m-858-119l-15 0 0 346 15 0z m858-59l-7-8-182 0 0 15 175 0 0 156 14 0z m-858 7l294 0 0-15-301 0-8 8 0 45 15 0z m655-15l-347 0 0 15 347 0z m-275 453c-67 0-123-50-123-115 0-64 56-115 123-115 67 0 123 51 123 115 0 65-56 115-123 115z m0-24c56 0 100-41 100-91 0-49-44-91-100-91-56 0-100 42-100 91 0 50 44 91 100 91z m103-129l-13-14 101-90-13-11-103 86-12-15 109-90 6-6 7 6 26 24 9 6-9 8-108 96z m-509 341l4-10 9 4-3 10z m-19-7l3-10 10 4-3 9z m-19-8l4-9 9 4-4 9z m-20-6l4-10 10 3-4 10z m-18-8l3-9 10 3-4 10z m-20-7l4-9 9 3-3 10z m-18-7l3-10 10 4-4 9z m-20-7l4-10 9 4-3 10z m-19-7l4-9 9 3-3 10z m-19-7l3-10 10 4-4 9z m-19-7l3-10 10 4-4 9z m-19-7l3-10 10 3-4 10z m-19-7l3-10 10 4-4 9z m-20-8l4-9 9 4-3 9z m-19-7l4-9 10 3-4 10z m-19-6l4-10 9 3-4 10z m-19-8l3-9 10 3-3 10z m-19-7l4-9 9 3-4 10z m-19-7l3-10 10 4-3 9z m-19-7l3-10 10 4-4 10z m-20-7l4-10 10 4-4 9z m-18-8l3-9 10 4-4 9z m-20-6l4-10 9 3-3 10z m-19-7l4-10 9 3-3 10z m-19-8l3-9 10 4-3 9z m-19-7l4-9 9 3-4 10z m-19-7l3-10 10 4-4 10z m-19-7l3-9 10 3-4 10z m-20-7l4-9 9 3-3 10z m-18-7l3-10 10 4-4 9z m-20-7l4-10 9 4-3 9z m-19-7l4-10 9 4-3 10z m-19-7l4-10 9 4-4 9z m-19-8l3-9 10 4-3 9z m-19-6l3-10 10 3-4 10z m-19-8l3-9 10 3-4 10z m-20-7l4-9 9 3-3 10z m6-282l5 0 0 4-4 1z m9 0l3-1 1 4-4 0z m8-2l3 0 1 4-4 0z m7-1l5 0 0 4-4 1z m8 0l4-1 1 4-4 0z m8-2l4 0 1 4-4 1z m8 0l4-1 1 4-4 0z m8-2l4 0 0 4-3 0z m8-1l4 0 1 4-4 1z m8 0l4-1 1 4-5 0z m8-2l4 0 0 3-4 1z m8-1l4-1 0 5-3 0z m8-1l4 0 0 4-3 0z m8-1l4 0 1 4-5 0z m8-1l3-1 1 5-4 0z m8-1l4 0 0 3-4 1z m8-1l4-1 0 5-4 0z m7-1l5 0 0 4-4 0z m9-1l3 0 1 3-4 1z m8-1l3-1 1 5-4 0z m7-1l5 0 0 4-4 0z m8-1l4 0 1 3-4 1z m8-1l4-1 1 5-4 0z m9-1l3 0 1 3-4 1z m7-1l4-1 0 4-3 1z m8-1l4-1 1 5-4 0z m8-1l4 0 1 3-5 1z m8-1l4-1 1 4-5 1z m8-1l4-1 0 4-3 1z m8-1l4-1 0 4-3 1z m8-1l4-1 1 4-5 1z m8-1l4-1 0 4-4 1z m8-1l4-1 0 4-4 1z m8-1l4-1 0 4-4 0z m7-2l5 0 0 4-4 1z m9 0l3-1 1 4-4 1z m8-1l3-1 1 4-4 0z m7-2l5 0 0 4-4 1z m8 0l5-1 0 4-4 0z m8-2l4 0 1 4-4 0z m9-1l3 0 1 4-4 1z m7 0l4-1 0 4-3 0z m8-2l4 0 1 4-4 0z m8-1l4 0 1 4-4 1z m8 0l4-1 1 4-5 0z m8-2l4 0 0 4-3 1z m8 0l4-1 0 4-3 0z m8-2l4 0 1 4-5 0z m8-1l4 0 0 4-4 1z m8 0l4-1 0 4-4 0z m8-2l4 0 0 3-3 1z m7-1l5-1 0 5-4 0z m9-1l3 0 1 4-4 0z m8-1l3 0 1 3-4 1z m8-1l4-1 0 5-4 0z m7-1l5 0 0 3-4 1z m8-1l4-1 1 5-4 0z m9-1l3 0 1 4-4 0z m7-1l4 0 1 3-4 1z m8-1l4-1 1 5-4 0z m8-1l4 0 1 3-4 1z m8-1l4-1 1 4-5 1z m8-1l4-1 0 5-3 0z m8-1l4 0 0 3-3 1z m8-1l4-1 1 4-5 1z m8-1l4-1 1 4-5 1z m8-1l4-1 0 4-4 1z m8-1l4-1 0 4-3 1z m7-1l5-1 0 4-4 1z m9-1l4-1 0 4-4 1z m8-1l3-1 1 4-4 1z m8-1l4-1 0 4-4 1z m7-1l5-1 0 4-4 1z m8-1l4-1 1 4-4 0z m9-2l3 0 1 4-4 1z m7 0l4-1 1 4-4 1z m8-1l4-1 1 4-4 0z m8-2l4 0 1 4-4 1z m8 0l4-1 1 4-5 0z m8-2l4 0 0 4-3 0z m8-1l4 0 0 4-3 1z m8 0l4-1 1 4-4 0z m8-2l4 0 1 4-5 0z m8-1l4 0 0 4-4 0z m8-1l4 0 0 4-3 0z m8-1l4 0 0 4-4 0z m8 0l4-1 0 4-4 0z m8-2l3 0 1 3-4 1z m-13 517l6-12 12 6-5 11z m-24-10l5-13 12 6-5 12z m-25-11l5-12 12 5-5 12z m-25-10l5-13 13 6-6 12z m-25-11l6-13 12 6-5 12z m-24-11l5-12 13 5-6 12z m-25-10l5-13 13 6-5 12z m-25-11l6-12 12 5-5 12z m-24-11l5-12 12 6-5 11z m-25-10l5-13 13 6-6 12z m-25-11l5-12 13 5-5 12z m-25-10l6-13 12 6-5 12z m-24-11l5-13 12 6-5 12z m-25-11l6-12 11 5-5 12z m-24-10l5-13 12 6-6 12z m-5-282l6-1 2 7-8 1z m14-2l7-1 0 7-6 1z m14-1l7-2 1 8-8 1z m14-2l7-1 1 7-7 1z m14-2l7-1 1 7-8 1z m14-1l7-2 1 7-7 2z m14-2l7-1 1 7-7 1z m14-2l7-1 1 7-7 1z m14-1l7-2 1 7-7 2z m14-2l7-1 1 7-7 1z m14-2l7-1 1 7-7 1z m14-1l7-2 1 7-7 2z m14-2l7-1 1 7-7 1z m14-2l8-1 0 7-7 1z m14-1l7-2 2 7-8 2z m14-2l8-1 0 7-7 1z m15-2l6-1 1 7-7 1z m13-2l8-1 0 7-6 2z m15-1l7-1 0 7-7 1z m13-2l8-1 1 7-7 1z m15-2l7-1 0 7-7 2z m14-1l7-1 1 7-7 1z m14-2l7-1 0 7-6 1z m14-2l7-1 1 7-7 2z m14-1l7-1 1 7-7 1z m14-2l7-1 1 7-7 1z" horiz-adv-x="2000" />

<glyph glyph-name="zoom_level_2" unicode="&#xe81a;" d="M511 747c0-764 0-764 0-764m-34 195l-211 0 0 36 81 89c12 12 22 24 31 34 9 10 17 20 23 30 7 10 12 20 15 30 4 10 5 21 5 33 0 9-1 17-4 24-2 7-6 13-11 18-5 4-11 8-17 11-7 2-14 3-22 3-15 0-28-3-40-9-12-6-23-13-34-22l-24 27c6 6 13 11 20 16 7 5 15 9 23 12 8 4 17 7 26 9 9 2 19 3 29 3 15 0 28-2 40-6 12-4 22-10 31-18 8-8 15-18 19-29 5-11 7-24 7-38 0-13-2-25-6-37-4-12-10-24-17-35-7-12-16-23-26-35-10-12-21-24-32-36l-65-70 0-1 159 0 0-39m123 131l-82 124 48 0 58-95 58 95 48 0-82-124 86-131-48 0-62 101-63-101-48 0 87 131" horiz-adv-x="1000" />

<glyph glyph-name="zoom_level_3" unicode="&#xe81b;" d="M511 747c0-764 0-764 0-764m-43 457c0-11-2-21-5-31-4-9-9-17-15-24-7-7-14-12-23-17-9-4-19-7-30-9l0-1c27-4 48-13 62-27 14-14 22-32 22-54 0-15-3-29-8-41-5-12-13-23-23-32-10-9-23-16-39-21-15-5-34-7-55-7-17 0-33 1-48 4-15 2-29 7-42 14l0 39c14-7 28-12 44-16 16-4 31-6 45-6 14 0 27 2 37 5 10 3 19 7 25 13 7 6 12 13 15 21 4 9 5 18 5 28 0 11-2 20-6 27-4 8-10 14-17 19-8 5-17 8-28 11-11 2-23 3-37 3l-31 0 0 35 31 0c12 0 23 2 33 5 10 3 18 7 25 13 6 6 11 13 15 20 3 8 5 17 5 26 0 9-2 16-4 22-3 6-7 12-12 16-5 5-11 8-19 10-7 3-15 4-23 4-17 0-31-3-44-8-13-5-25-12-36-20l-21 29c5 5 12 9 19 13 7 4 15 8 24 11 8 3 17 6 27 8 10 2 20 2 31 2 16 0 31-2 44-6 12-4 23-10 31-17 9-8 15-17 20-27 4-10 6-22 6-34m134-129l-82 124 48 0 58-95 58 95 48 0-83-124 87-131-48 0-62 101-63-101-48 0 87 131" horiz-adv-x="1000" />

<glyph glyph-name="zoom_level_15" unicode="&#xe81c;" d="M511 747c0-764 0-764 0-764m-302 228l-41 0 0 212c0 7 0 14 0 21 0 8 0 15 0 23 1 7 1 15 1 21 0 7 1 13 1 19-3-3-5-6-7-8-2-2-4-3-6-5-2-2-5-4-7-6-2-2-5-5-8-8l-35-28-22 29 89 69 35 0 0-339m180 55l4-5c-2-8-5-17-8-27-3-9-6-19-10-28-3-10-7-19-11-29-4-9-8-19-12-27l-32 0c2 9 5 19 7 29 2 10 4 21 6 31 3 10 4 20 6 29 2 10 3 19 5 27l45 0m162 153c15 0 29-2 42-6 14-4 25-11 35-19 10-8 18-19 23-31 6-13 9-27 9-43 0-18-3-34-8-48-6-14-13-26-24-35-10-10-23-18-38-23-15-5-33-8-53-8-8 0-15 1-23 2-8 0-15 2-22 3-7 1-14 3-20 6-6 2-12 5-17 8l0 40c5-4 11-7 18-10 7-3 14-5 21-7 8-2 16-3 23-4 8-1 15-2 21-2 13 0 24 2 33 5 10 3 18 7 25 13 6 6 11 14 15 23 3 9 5 20 5 32 0 22-7 39-20 51-14 12-34 17-60 17-4 0-8 0-13 0-5-1-10-1-15-2-5 0-9-1-14-2-4 0-8-1-11-2l-21 14 13 159 160 0 0-38-124 0-9-97c5 0 12 1 20 3 8 1 18 1 29 1m230-77l-82 124 48 0 58-95 58 95 48 0-83-124 87-131-48 0-62 101-63-101-48 0 87 131" horiz-adv-x="1000" />

<glyph glyph-name="zoom_level_25" unicode="&#xe81d;" d="M511 747c0-764 0-764 0-764m-224 226l-211 0 0 36 81 88c11 13 22 24 31 35 9 10 17 20 23 30 7 10 12 20 15 30 3 10 5 21 5 32 0 10-1 18-4 25-3 6-6 12-11 17-5 5-11 9-17 11-7 3-15 4-23 4-14 0-28-3-40-9-11-6-23-14-33-23l-24 28c6 5 13 11 20 15 7 5 15 10 23 13 8 4 17 6 26 8 9 3 19 4 29 4 15 0 28-2 40-7 12-4 22-10 30-18 9-7 15-17 20-28 4-11 7-24 7-38 0-13-2-26-7-38-4-11-9-23-16-35-8-11-16-23-26-34-10-12-21-24-33-37l-65-69 0-2 160 0 0-38m112 55l3-6c-2-8-4-17-7-26-3-10-7-19-10-29-4-9-8-19-12-28-4-10-7-19-11-28l-32 0c2 10 4 20 6 30 3 10 5 20 7 30 2 11 4 20 6 30 1 10 3 19 4 27l46 0m161 153c16 0 30-2 43-7 13-4 25-10 35-19 9-8 17-18 23-31 5-12 8-26 8-43 0-17-3-33-8-47-5-14-13-26-23-36-11-10-23-17-39-22-15-5-32-8-52-8-8 0-16 1-24 1-7 1-15 2-22 4-7 1-13 3-20 5-6 3-12 5-17 8l0 40c5-3 11-6 18-9 7-3 14-5 22-7 7-2 15-4 23-5 7-1 14-1 21-1 12 0 23 1 33 4 9 3 17 8 24 14 7 6 12 13 15 22 4 9 6 20 6 33 0 22-7 39-21 50-13 12-33 18-59 18-4 0-9 0-14-1-5 0-9 0-14-1-5-1-10-1-14-2-5-1-8-1-12-2l-21 13 13 160 160 0 0-39-123 0-9-97c5 1 11 2 19 3 8 1 18 2 29 2m230-78l-82 124 48 0 58-95 58 95 48 0-82-124 87-130-48 0-63 101-62-101-48 0 86 130" horiz-adv-x="1000" />

<glyph glyph-name="zoom_level_default" unicode="&#xe81e;" d="M511 747c0-764 0-764 0-764m-432 389l842 0 0-44-842 0z" horiz-adv-x="1000" />

<glyph glyph-name="cursor_type_pointer" unicode="&#xe81f;" d="M463 754l-125-3a19 19 0 0 1-18-20l8-360-45 46a19 19 0 0 1-13 5l-88 5a19 19 0 0 1-19-21l8-110a19 19 0 0 1 4-10l191-263 0-66a19 19 0 0 1 19-20l370 0a19 19 0 0 1 19 20l0 92 58 102a19 19 0 0 1 2 6l14 59a19 19 0 0 1 0 4l5 205a19 19 0 0 1-5 13l-47 47a19 19 0 0 1-10 5l-68 17-39 34a19 19 0 0 1-13 5l-74-3-9 25a19 19 0 0 1-18 12l-87 0 0 156a19 19 0 0 1-20 18z m-18-39l0-154a19 19 0 0 1 18-19l93 0 10-26a19 19 0 0 1 18-12l80 4 37-33a19 19 0 0 1 8-5l68-16 38-37-5-192-12-57-60-104a19 19 0 0 1-2-10l0-79-332 0 0 54a19 19 0 0 1-4 11l-191 264-7 84 58-3 74-76a19 19 0 0 1 33 14l-8 390 86 2z m38-157l-38-2 4-162 39 2-5 162z m125-34l-38-2 9-145 38 2-9 145z m130-39l-39-1 5-137 38 2-4 136z" horiz-adv-x="1000" />

<glyph glyph-name="lens_shape_none" unicode="&#xe820;" d="M723 550l-23 23-423-423 23-23z m-446 0l23 23 423-423-23-23z" horiz-adv-x="1000" />

<glyph glyph-name="zoom-in" unicode="&#xe821;" d="M453 698c-162 0-293-132-293-294 0-161 131-293 293-293 162 0 294 132 294 293 0 162-132 294-294 294z m0-58c131 0 236-105 236-236 0-130-105-236-236-236-131 0-236 106-236 236 0 131 105 236 236 236z m2-108a29 29 0 0 1-29-29l-3-197a29 29 0 1 1 57 0l3 196a29 29 0 0 1-28 30z m-100-97a29 29 0 1 1-1-58l197-3a29 29 0 1 1 1 57l-197 4z m280-194a29 29 0 0 1-20-49l187-187a29 29 0 1 1 41 41l-187 186a29 29 0 0 1-21 9z" horiz-adv-x="1000" />
</font>
</defs>
</svg>
